#TITLE:Kungfu Drunk;
#SUBTITLE:Live Vn Team;
#ARTIST:Notes By [R]Nhoc;
#TITLETRANSLIT:;
#SUBTITLETRANSLIT:;
#ARTISTTRANSLIT:;
#CREDIT:;
#BANNER:ZhouDaXia-bn.jpg;
#BACKGROUND:ZhouDaXia-bg.jpg;
#LYRICSPATH:;
#CDTITLE:;
#MUSIC:ZHOU DA XIA CD VERSION.mp3;
#OFFSET:-0.920;
#SAMPLESTART:100.000;
#SAMPLELENGTH:12.000;
#SELECTABLE:YES;
#BPMS:0.000=168.000,392.750=178.000,392.813=169.980,392.813=146.740,392.833=170.180,392.875=138.360,392.917=148.760,392.938=119.540,393.000=113.940,393.063=95.540,393.083=101.140,393.125=83.540,393.188=72.340,393.250=61.940,393.313=51.520,393.375=46.320,393.438=39.500,393.500=29.900,393.563=18.700,393.625=9.100;
#STOPS:;
#BGCHANGES:352.250=ZhouDaXia-bg.jpg=1.000=0=0=1,
99999=-nosongbg-=1.000=0=0=0 // don't automatically add -songbackground-
;
// cache tags:
#FIRSTBEAT:0.500;
#LASTBEAT:392.500;
#SONGFILENAME:Songs/Music V.I.P ^_^/ZHOU DA XIA1/ZHOU DA XIA CD VERSION.sm;
#HASMUSIC:1;
#HASBANNER:1;
#MUSICLENGTH:143.307;
// end cache tags

//---------------dance-single - ----------------
#NOTES:
     dance-single:
     :
     Challenge:
     15:
     1.000,1.000,1.000,0.502,1.000,893.000,352.000,72.000,177.000,60.000:
0000
1001
0000
0010
1100
0000
0010
0101
,
0100
0000
1001
0000
0000
0000
0011
0000
0100
0000
0000
0001
0100
0000
1010
0000
,
0000
1001
0000
0100
0011
0000
0100
1010
,
0010
0000
1001
0000
0000
0000
1100
0000
0010
0000
0001
0000
0010
0001
0010
0001
,
0010
1001
0000
0100
0011
0000
0100
1010
,
0010
0000
1001
0000
0000
0000
1100
0000
0010
0000
0000
1000
0010
0000
0101
0000
,
0000
1001
0000
0010
1100
0000
0010
0101
,
0100
0000
1001
0000
0000
0000
0011
0000
0100
0000
1000
0000
0100
1000
0100
1000
,
0100
0110
0000
1000
0011
0000
1000
0101
,
0001
0000
0110
0000
0000
0000
1100
0000
0001
0000
0000
0100
0001
0000
1010
0000
,
0000
0110
0000
0001
1100
0000
0001
1010
,
1000
0000
0220
0000
0000
0000
0000
0000
0000
0000
1330
0001
1000
0001
1000
0001
,
1000
0010
0100
0010
1000
0001
0010
0100
0010
1000
0100
0001
0010
1000
0001
0100
,
0010
0000
1100
0000
0011
0000
0110
0000
0101
0000
1000
0100
0001
0100
0001
0010
,
0100
0010
0100
0010
1000
0100
0010
0100
0010
0100
0001
1000
0001
0100
0010
1000
,
0011
0000
1100
0000
0011
0000
0110
0000
1001
0110
0000
0110
0000
0110
1000
0001
,
1000
0010
0100
0010
1000
0001
0100
0010
0100
1000
0010
0100
0001
0100
0010
0100
,
1010
0000
0101
0000
0110
0000
1010
0000
0110
0000
0001
0100
1000
0100
0010
0100
,
0001
1000
0100
0010
0100
0010
0100
0001
1000
0100
0001
0010
0001
0010
1000
0100
,
1001
0000
0000
0000
0110
0000
0000
0000
0011
0000
0000
0000
1100
0000
0000
0000
0101
0000
1010
0000
0000
0000
0110
0000
0000
0000
0101
1000
0100
0010
0001
0010
,
1100
0110
1100
0011
1100
0101
1010
0111
,
1011
0100
0110
1100
0101
0110
0011
1110
,
0111
1000
0011
1100
0101
0110
1100
0111
,
1110
0000
0001
0000
0110
0000
1100
0000
0101
0000
0011
1000
0110
0001
1110
0000
,
0220
1001
2330
0100
3121
1000
0132
1010
,
0213
0000
1321
0000
0132
0000
1203
0000
1010
0000
0302
1000
0010
0000
1103
0000
,
0110
1001
0101
0011
1100
0011
1100
0011
,
0100
0000
1001
0000
0110
0000
0011
0000
0100
0000
1000
0000
0100
1000
0100
1000
,
0100
2010
0000
3011
0110
0102
0000
1103
,
0010
1020
0000
0131
0100
0201
0000
1310
,
0110
1100
0011
1010
0101
0110
1100
0101
,
0011
0000
1100
0000
0110
0000
1001
0000
1010
0000
0101
0000
0010
0000
1010
0100
,
0001
0100
2002
0000
0000
0000
3103
0000
0010
0000
2002
0000
0000
0000
3013
0000
,
0100
0202
0000
1313
0100
2020
0000
3131
,
0000
0110
1100
0011
0110
0101
1010
0110
,
0101
0000
0110
0000
1100
0000
0011
0000
0110
0000
1100
0000
0010
0000
1010
0100
,
0001
0100
0021
0000
0000
0000
0131
0000
1001
0000
1200
0000
0000
0000
1310
0000
,
0001
0012
0000
1103
1000
2100
0000
3011
,
1001
1010
0101
0011
1100
1001
1010
1100
,
0101
0000
1010
0000
1001
0000
0110
0000
0011
0000
1100
0000
0001
0000
0011
1000
,
0100
1000
0220
0000
0000
0000
1330
0000
0001
0000
0220
0000
0000
0001
0331
0000
,
1000
2200
0000
3311
1000
0022
0000
1133
,
0000
1001
1010
0101
1001
1100
0011
1001
,
1100
0000
1001
0000
1010
0000
0101
0000
1001
0000
1010
0000
0001
0100
0011
1000
,
0010
0000
00M0
00M0
00M0
00M0
00M0
00M0
00M0
00M0
00M0
00M0
00M0
00M0
00M0
0000
1000
0000
M000
M000
M000
M000
M000
M000
M000
M000
M000
M000
M000
M000
M000
0000
,
0100
0000
0M00
0M00
0M00
0M00
0M00
0M00
0M00
0M00
0M00
0M00
0M00
0M00
0M00
0000
0110
0000
0MM0
0MM0
0MM0
0MM0
0MM0
0MM0
0MM0
0MM0
0MM0
0MM0
0MM0
0MM0
0MM0
0MM0
,
0MM0
0MM0
0MM0
0MM0
0MM0
0MM0
0MM0
0MM0
0MM0
0MM0
0MM0
0MM0
0MM0
0MM0
0MM0
0MM0
0MM0
0MM0
0MM0
0MM0
0MM0
0MM0
0MM0
0MM0
0MM0
0MM0
0MM0
0MM0
0MM0
0MM0
0MM0
0MM0
,
0MM0
0MM0
0MM0
0000
1001
0000
0000
0000
0101
0000
0000
0000
0011
0000
0000
0000
0101
0000
0000
0000
1001
0000
0000
0000
1001
0000
1001
0000
1001
0000
1001
0000
,
1111
0000
0110
1000
0100
1000
0010
0100
0010
1000
0100
0010
1000
0100
1002
0010
,
0100
0010
1003
0001
1000
0010
0001
0010
0100
0010
0100
1000
0010
0100
0020
1000
,
0100
0001
0130
0001
1000
0010
0100
0010
1000
0100
2000
0010
0001
0100
3010
0100
,
0001
0100
0010
1000
0100
0001
0100
0010
1000
0001
0100
0001
1000
0010
0200
0000
,
0000
0000
0310
0001
1000
0010
0100
0001
1000
0010
0100
0001
0100
0010
1000
0100
,
0001
0100
0010
1000
0100
0010
0100
0010
1000
0001
0100
0010
1000
0001
0020
0100
,
1000
0100
0031
0100
0001
1000
0010
0100
0001
1000
0010
0100
0001
1000
0010
0100
,
0001
1000
0010
0100
0001
0100
0010
1000
0001
0100
0010
0100
0001
1100
0011
1100
,
0011
1100
1100
0001
0010
0001
0100
0010
0100
0001
0010
0100
0001
0010
2001
0100
,
0010
0100
3001
1000
0001
0100
1000
0100
0010
0100
0010
0001
0100
0010
0200
0001
,
0010
1000
0310
1000
0001
0100
0010
0100
0001
0010
0002
0100
1000
0010
0103
0010
,
1000
0010
0100
0001
0010
1000
0010
0100
0001
1000
0010
1000
0001
0100
1020
0001
,
0100
0001
0130
1000
0001
0100
0010
1000
0001
0100
0010
1000
0010
0100
0001
0010
,
1000
0010
0100
0001
0010
0100
0010
0100
0001
1000
0010
0100
0001
1000
0200
0010
,
0001
0010
1300
0010
1000
0001
0100
0010
1000
0001
0100
0010
1000
0001
0100
0010
,
1000
0000
0001
0000
0100
0000
0010
0000
1000
0000
0010
0000
0100
0000
0001
0000
1000
0000
0010
0000
0100
0000
0010
0000
0100
0010
0100
0010
0100
0010
0100
0010
,
0100
0010
0100
0010
0101
0000
0000
0000
0000
0000
0000
0000
0000
0000
0000
0000
0000
0000
0000
0000
1100
0000
0000
0000
0000
0000
0000
0000
0000
0000
0000
0000
,
0000
0000
0011
0000
0000
0000
0000
0000
1000
0100
0011
0000
0000
0000
0110
0000
,
1000
0100
1000
0100
1000
0010
1000
0000
0011
1000
0100
0000
0000
0000
0110
0000
,
0000
1100
0000
0000
0000
0011
0000
0100
,
0001
0010
0001
0010
0001
0010
1000
0100
1000
0100
0001
0000
0000
0000
0100
0000
,
0000
0000
0101
0000
0000
0000
0000
0000
0110
0001
1100
0000
0000
0000
0011
0000
,
0000
0000
1000
0010
1000
0010
1000
0000
0100
0010
0001
0000
0000
0000
1010
0000
,
0000
0000
0202
0000
1000
0010
1000
0010
1000
0010
1303
0110
0000
0110
0000
1001
,
0100
0010
2010
0000
0MMM
0000
3011
0000
0110
0000
0102
0000
MMM0
0000
1103
0000
,
0010
1020
MM0M
0131
0100
0201
M0MM
1310
,
0110
1100
0011
1010
0101
0110
1100
0101
,
0011
0000
1100
0000
0110
0000
1001
0000
1010
0000
0101
0000
0010
0000
1010
0100
,
0001
0100
2002
0000
0MM0
0000
3103
0000
0010
0000
2002
0000
0MM0
0000
3013
0000
,
0100
0202
M0M0
1313
0100
2020
0M0M
3131
,
0000
0110
1100
0011
0110
0101
1010
0110
,
0101
0000
0110
0000
1100
0000
0011
0000
0110
0000
1100
0000
0010
0000
1010
0100
,
0001
0100
0021
0000
MM0M
0000
0131
0000
1001
0000
1200
0000
M0MM
0000
1310
0000
,
0001
0012
MMM0
1103
1000
2100
0MMM
3011
,
1001
1010
0101
0011
1100
1001
1010
1100
,
0101
0000
1010
0000
1001
0000
0110
0000
0011
0000
1100
0000
0001
0000
0011
1000
,
0100
1000
0220
0000
M00M
0000
1330
0000
0001
0000
0220
0000
M00M
0000
0331
0000
,
1000
2200
00MM
3311
1000
0022
MM00
1133
,
0000
1001
1010
0101
1001
1100
0011
1001
,
1100
0000
1001
0000
1010
0000
0101
0000
1001
0000
1010
0000
0001
0100
0011
1000
,
0000
1001
0000
0010
1100
0000
0010
0101
,
0100
0000
1001
0000
0000
0000
0011
0000
0100
0000
0000
0001
0100
0000
1010
0000
,
0000
1001
0000
0100
0011
0000
0100
1010
,
0010
0000
1001
0000
0000
0000
1100
0000
0010
0000
0001
0000
0010
0001
0010
0001
,
0010
1001
0000
0100
0011
0000
0100
1010
,
0010
0000
1001
0000
0000
0000
1100
0000
0010
0000
0000
1000
0010
0000
0101
0000
,
0000
1001
0000
0010
1100
0000
0010
0101
,
0100
0000
1001
0000
0000
0000
0011
0000
0100
0000
1000
0000
0100
1000
0100
1000
,
0100
0110
0000
1000
0011
0000
1000
0101
,
0001
0000
0110
0000
0000
0000
1100
0000
0001
0000
0000
0100
0001
0000
1010
0000
,
0000
0110
0000
0000
0000
0000
0000
0000
;
